Jump to content

szilvike19800717

Moderátor
  • Content Count

    316
  • Joined

  • Last visited

Community Reputation

1,274 Kiemelkedő

About szilvike19800717

  • Rang
    Haladó

Profile Information

  • Neme
    Férfi

Recent Profile Visitors

652 profile views
  1. szilvike19800717

    Átejtve /Overboard/2018.BDRip.HUN

    Átejtve /Overboard/ amerikai romantikus vígjáték , 112 perc, 2018 producer: Eugenio Derbez Ben Odell zene: Lyle Workman operatőr: Michael Barrett rendező: Rob Greenberg forgatókönyvíró: Leslie Dixon Bob Fisher Rob Greenberg Kate Anna Faris Leonardo Eugenio Derbez Theresa Eva Longoria Parker Colin John Hannah Grace Swoosie Kurtz Jason Josh Segarra Amanda Emily Maddison Olivia Alyvia Alyn Lind Emily Hannah Nordberg Format : MPEG-4 Format profile : Base Media Codec ID : isom (isom/iso2/avc1/mp41) File size : 463 MiB Duration : 1 h 52 min Overall bit rate : 577 kb/s Movie name : BaKeR-Rls Writing application : Lavf57.83.100 Video ID : 1 Format : AVC Format/Info : Advanced Video Codec Format profile : High@L3.1 Format settings, CABAC : Yes Format settings, ReFrames : 5 frames Codec ID : avc1 Codec ID/Info : Advanced Video Coding Duration : 1 h 52 min Bit rate : 512 kb/s Width : 720 pixels Height : 302 pixels Display aspect ratio : 2.40:1 Frame rate mode : Constant Frame rate : 23.976 (24000/1001) FPS Color space : YUV Chroma subsampling : 4:2:0 Bit depth : 8 bits Scan type : Progressive Bits/(Pixel*Frame) : 0.098 Stream size : 408 MiB (88%) Writing library : x264 core 148 r2795 aaa9aa8 Audio ID : 2 Format : AAC Format/Info : Advanced Audio Codec Format profile : LC Codec ID : 40 Duration : 1 h 52 min Bit rate mode : Constant Bit rate : 64.8 kb/s Channel(s) : 2 channels Channel positions : Front: L R Sampling rate : 48.0 kHz Frame rate : 46.875 FPS (1024 spf) Compression mode : Lossy Stream size : 52.1 MiB (11%) Language : Hungarian Default : Yes Alternate group : 1 Leonardo, az önelégült, gazdag playboy, Mexikó legtehetősebb családjának sarja felveszi a gyermekeit egyedül nevelő Kate-et, a munkásosztály gyöngyét luxusjachtjának takarítására. Röviddel azután, hogy igazságtalanul kirúgja a nőt és még a fizetségét is megtagadja, Leonardo átesik a hajókorláton a heves partizás közepette, majd Oregon partjainál tér magához – emlékezetkieséssel. Kate felbukkan a kórházban, és hogy elégtételt vegyen, elhiteti Leonardóval, hogy ő a férje, s így a férfi – életében először – dolgozni kényszerül. Kezdetben szánalmasan alkalmatlannak bizonyul bármire, ám idővel felveszi a munka ritmusát, és “családja” elismerését is kivívja. Valódi, milliárdos rokonai azonban bármikor rábukkanhatnak és emlékezete is akármikor visszatérhet… [Hidden Content] [Hidden Content] [Hidden Content] [Hidden Content] [Hidden Content]
  2. Itt sajnos a .z01 fájl sérült , mert csak 26 MB , ami biztosan kisebb , mint kellene . Ezért nem lehet kijavitani és kibontani .

  3. A végzet órája /The House with a Clock in its Walls/ amerikai családi film, fantasy, horror, 104 perc, 2018 rendező: Eli Roth forgatókönyvíró: Eric Kripke operatőr: Rogier Stoffers producer: Eric Kripke James Vanderbilt zene: Nathan Barr Lewis Barnavelt Owen Vaccaro Jonathan Barnavelt Jack Black Mrs. Zimmerman Cate Blanchett Isaac Izard Kyle MacLachlan Selena Izard Renée Elise Goldsberry Lewis édesanyja Lorenza Izzo Video ID : 1 Format : AVC Format/Info : Advanced Video Codec Format profile : High@L3.1 Format settings, CABAC : Yes Format settings, ReFrames : 5 frames Codec ID : avc1 Codec ID/Info : Advanced Video Coding Duration : 1 h 38 min Bit rate : 512 kb/s Width : 720 pixels Height : 300 pixels Display aspect ratio : 2.40:1 Frame rate mode : Constant Frame rate : 29.970 (30000/1001) FPS Color space : YUV Chroma subsampling : 4:2:0 Bit depth : 8 bits Scan type : Progressive Bits/(Pixel*Frame) : 0.079 Stream size : 361 MiB (88%) Writing library : x264 core 148 r2795 aaa9aa8 Audio ID : 2 Format : AAC Format/Info : Advanced Audio Codec Format profile : LC Codec ID : 40 Duration : 1 h 38 min Bit rate mode : Constant Bit rate : 64.4 kb/s Channel(s) : 2 channels Channel(s)_Original : 1 channel Channel positions : Front: C Sampling rate : 44.1 kHz Frame rate : 43.066 FPS (1024 spf) Compression mode : Lossy Stream size : 45.2 MiB (11%) Title : HANG~1 Default : Yes Alternate group : 1 A 10 éves Lewis Barnavelt (Owen Vacarro), mikor a nagybátyjához, Jonathanhez (Jack Black) költözik, nem is sejti, hogy egy mágiával, varázslókkal, boszorkányokkal teli izgalmas világba csöppen. Új otthona, az ódon kastély megannyi titkot rejt, köztük a ház falában egy folyton ketyegő különös órát. Amikor Lewis halloweenkor véletlenül feltámasztja a holtakat, megkezdődik a versenyfutás az idővel. A bátor fiúnak varázsló bácsikájával és a szomszédban lakó belevaló boszorkánnyal, Florence-szel (Cate Blanchett) karöltve meg kell találnia az órát, hogy a fekete mágiát űző, holtából feltámadt gonosz varázslónő, Selena (Renée Elise Goldsberry) kegyetlen tervét megsemmisítsék, és megmentsék a világot a teljes pusztulástól. [Hidden Content] [Hidden Content] [Hidden Content] [Hidden Content] [Hidden Content]
  4. A Hunter Killer küldetés /Hunter Killer/ amerikai-kínai akcióthriller, 121 perc, 2018 rendező: Donovan Marsh forgatókönyvíró: Arne Schmidt Jamie Moss zene: Trevor Morris operatőr: Tom Marais vágó: Michael J. Duthie producer: Gerard Butler Mark Gill Toby Jaffe Neal H. Moritz Matthew O'Toole Alan Siegel John Thompson Les Weldon társproducer: Danielle Robinson executive producer: Christa Campbell Lati Grobman Kevin King Avi Lerner Heidi Jo Markel Christine Otal Kevin King Templeton Pentagon Staff Linda Cardellini Capt. Joe Glass Gerard Butler Donnegan Gary Oldman Navy Seal Toby Stephens Captain Sergi Andropoyov Michael Nyqvist Common Johnston Ryan McPartlin President Dover Caroline Goodall Devin Hall Michael Trucco Seaman Mackinnon Theo Barklem-Biggs Martinelli Zane Holtz Turner Shane Taylor Jiminez Gabriel Chavarria Oleg Yuri Kolokolnikov Kép ID/String : 1 Format : AVC Format/Info : Advanced Video Codec Format_Profile : Main@L3.1 Format_Settings_CABAC/String : igen Format_Settings_RefFrames/String : 1 k├⌐pkocka CodecID : V_MPEG4/ISO/AVC Duration/String : 1 ├│ra BitRate/String : 3 068 Kbps Width/String : 1 280 k├⌐ppont Height/String : 496 k├⌐ppont DisplayAspectRatio/String : 2,581 FrameRate_Mode/String : v├íltoz├│ FrameRate/String : 29,970 fps ColorSpace : YUV ChromaSubsampling : 4:2:0 BitDepth/String : 8 bit ScanType/String : folytonos Bits-(Pixel*Frame) : 0.161 Hang ID/String : 2 Format : MPEG Audio Format_Version : Version 1 Format_Profile : Layer 3 CodecID : A_MPEG/L3 CodecID/Hint : MP3 Duration/String : 1 ├│ra BitRate_Mode/String : ├ílland├│ BitRate/String : 320 Kbps Channel(s)/String : 1 csatorna SamplingRate/String : 44,1 KHz StreamSize/String : 255 MiB (9%) Default/String : igen Forced/String : nem Nyelv : magyar Joe Glass tengeralattjáró-kapitány (Gerard Butler, Támadás a Fehér Ház ellen, 300) épp egy vészhelyzetbe került amerikai tengeralattjárót próbál előkeríteni a Jeges-tenger mélyén, amikor tudomására jut, hogy titokban orosz puccs készülődik, ami súlyos fenyegetést jelent a világrendre. Felismerve, hogy legénysége és országa egyaránt veszélyben van, Glass kapitánynak össze kell verbuválnia egy elit tengerészgyalogosokból álló csapatot, hogy kiszabadítsák az elrabolt orosz elnököt, és az ellenséges vizekre behatolva megakadályozzák a harmadik világháború kitörését. A tengeren és szárazföldön is játszódó Hunter Killer küldetés vérfagyasztóan izgalmas thriller, amelynek további szerepeiben olyan színészeket láthatunk, mint az Oscar®-díjas Gary Oldman (A legsötétebb óra), Common (John Wick: 2. felvonás), Linda Cardellini (Bosszúállók: Ultron kora) és Toby Stephens (Halj meg máskor). [Hidden Content] [Hidden Content] [Hidden Content] [Hidden Content] [Hidden Content] [Hidden Content] [Hidden Content] [Hidden Content] [Hidden Content] [Hidden Content] [Hidden Content]
  5. Zéró páciens / Patient Zero / színes, szinkronizált, angol akció-horror, 2018 Rendező: Stefan Ruzowitzky Operatőr: Benedict Neuenfels Forgatókönyvíró: Mike Le Vágó: Mark Stevens Producer: Vincent Newman Natalie Dormer Clive Standen Matt Smith Stanley Tucci John Bradley Agyness Deyn Dilyana Bouklieva Format : MKV Video codec : AVC High@L4.1 Bitrate : 1285 kbit/s Resolution : 718x300 D.A.R. : 2,40:1 Video FPS. : 25,000 Format : AC-3 Language : HUN Frequency : 48,000 HZ Bitrate : 384 Kbps Channels : 6 Világméretű járvány tör ki, melynek során a fertőzött emberek rendkívül erőszakossá válnak, ráadásul mintha már nem is értenék az emberi nyelvet. Egy embert különleges képességgel áldottak meg, ő ugyanis beszéli a vírushordozók új nyelvét, így nagy segítségére lehet a túlélőknek abban, hogy megtalálja a vírus eredetét, azaz a zéró pácienst, illetve ezáltal a gyógymódot is. [Hidden Content] [Hidden Content] [Hidden Content] [Hidden Content] [Hidden Content] [Hidden Content] [Hidden Content] [Hidden Content] [Hidden Content] [Hidden Content] [Hidden Content]
  6. Az emberiség minisztérium /The Humanity Bureau/ magyarul beszélő, kanadai sci-fi akciófilm 2017 Rendező: Rob W. King Forgatókönyv: Dave Schultz Zene: Todd Bryanton Nicolas Cage Hugh Dillon Sarah Lind Jakob Davies Vicellous Reon Shannon Jett Klyne Kurt Max Runte Destee Klyne Video formatum...........: MKV Video codec..............: x264 Szelesseg................: 720 pixels Magassag.................: 302 pixels Kepsebesseg..............: 24.000 fps Adatsebesseg.............: 1265 kbit/s Audio codec............: AC-3 Adatsebesseg...........: 256 Kbps Audio channels.........: 2 channels Audio Language.........: Hun 2030-ban a világ gazdasága súlyos recesszióval néz szembe, a bolygó légköre pedig kezd egyre élhetetlenebbé válni a globális felmelegedés következtében. Sugárfertőzés beszennyezte Amerika nagyobb területét. Víz lelőhelyek szennyezettek vagy kiszáradtak. Az állatok elpusztultak. Növények már nem teremnek. Vagyis az emberiség fogytán van az élelemből és a vízből, vagyis a kihalás szélén áll. Nagyhatalmak létrehoztak egy új kormányzatot, a Humán Minisztériumot, mely mindent irányít. [Hidden Content] [Hidden Content] [Hidden Content] [Hidden Content] [Hidden Content] [Hidden Content] [Hidden Content] [Hidden Content] [Hidden Content] [Hidden Content] [Hidden Content] [Hidden Content]
  7. Defekt /Downrange/ magyarul beszélő, japán-amerikai akcióthriller, horror, 90 perc, 2018 Rendező: Ryûhei Kitamura Forgatókönyv: Ryûhei Kitamura, Joey O'Bryan Zene: Aldo Shllaku Kelly Connaire Stephanie Pearson Rod Hernandez Anthony Kirlew Alexa Yeames Jason Tobias Kép ID/String : 1 Format : AVC Format/Info : Advanced Video Codec Format_Profile : High@L4.1 Format_Settings_CABAC/String : igen Format_Settings_RefFrames/String : 4 k├⌐pkocka CodecID : V_MPEG4/ISO/AVC Duration/String : 1 ├│ra BitRate/String : 2 150 Kbps Width/String : 1 920 k├⌐ppont Height/String : 800 k├⌐ppont DisplayAspectRatio/String : 2,40:1 FrameRate_Mode/String : v├íltoz├│ FrameRate/String : 24,000 fps ColorSpace : YUV ChromaSubsampling : 4:2:0 BitDepth/String : 8 bit ScanType/String : folytonos Bits-(Pixel*Frame) : 0.058 StreamSize/String : 1,31 GiB (85%) Hang ID/String : 2 Format : MPEG Audio Format_Version : Version 1 Format_Profile : Layer 3 CodecID : A_MPEG/L3 CodecID/Hint : MP3 Duration/String : 1 ├│ra BitRate_Mode/String : ├ílland├│ BitRate/String : 320 Kbps Channel(s)/String : 1 csatorna SamplingRate/String : 44,1 KHz StreamSize/String : 205 MiB (13%) Default/String : igen Forced/String : nem Nyelv : magyar Egy fiatalokból álló baráti csoport tagjai izgalmas ötletnek tartják, hogy egy hosszú felfedezőútra induljanak, így szakadva el a szokványos napok unalmától, ám amikor autójuk defektet kap egy elhagyatott úton, akkor az, ami korábban még ideális kikapcsolódásnak tűnt, egyenesen rémálommá válik. Térerő nincs, segítséget senkitől sem tudnak kérni, és kiderül, hogy a defekt okát nem a véletlen számlájára kell írni. Valahol a távolban ugyanis egy mesterlövész figyeli őket, amikor pedig eldördül az első lövése, a csapat azonnal megtapasztalja, milyen érzés űzött vadnak lenni. [Hidden Content] [Hidden Content] [Hidden Content] [Hidden Content] [Hidden Content] [Hidden Content] [Hidden Content] [Hidden Content] [Hidden Content] [Hidden Content]
  8. Libabőr 2 – Hullajó Halloween /Goosebumps 2: Haunted Halloween/ magyarul beszélő, ausztrál-amerikai családi kalandfilm, vígjáték, 2018 Rendező: Ari Sandel Forgatókönyv: Rob Lieber Zene: Dominic Lewis Jack Black Madison Iseman Wendi McLendon-Covey Jeremy Ray Taylor Chris Parnell Ken Jeong Shari Headley Kép ID/String : 1 Format : MPEG-4 Visual Format_Profile : Advanced Simple@L5 Format_Settings_BVOP/String : igen Format_Settings_QPel/String : nem Format_Settings_GMC/String : 0 warppoint Format_Settings_Matrix/String : Default (H.263) CodecID : XVID CodecID/Hint : XviD Duration/String : 1 ├│ra BitRate/String : 1 867 Kbps Width/String : 720 k├⌐ppont Height/String : 336 k├⌐ppont DisplayAspectRatio/String : 2,2:1 FrameRate/String : 29,970 fps ColorSpace : YUV ChromaSubsampling : 4:2:0 BitDepth/String : 8 bit ScanType/String : folytonos Bits-(Pixel*Frame) : 0.257 StreamSize/String : 1,06 GiB (84%) Encoded_Library/String : XviD 65 Default/String : igen Forced/String : nem Hang ID/String : 2 Format : MPEG Audio Format_Version : Version 1 Format_Profile : Layer 3 CodecID : A_MPEG/L3 CodecID/Hint : MP3 Duration/String : 1 ├│ra BitRate_Mode/String : ├ílland├│ BitRate/String : 320 Kbps Channel(s)/String : 1 csatorna SamplingRate/String : 44,1 KHz StreamSize/String : 186 MiB (14%) Default/String : igen Forced/String : nem Nyelv : magyar A horrorregényírónak van egy nagy titka: fantáziájának meghökkentő és hátborzongató szülöttei életre kelnek, kilépnek a borítók közül, és elkövetik mind azt a gonoszságot, amellyel szerzőjük felruházta őket. Ezért van minden könyvén lakat. És ezért nem tanácsos kinyitni a lakatot. Ha valamelyik rémnek sikerül megszöknie, a hosszú fogság után kiélvezi a szabadságát, és annyit rosszalkodik, amennyit csak tud. A szerző legutóbb ifjú szomszédja segítségével zabolázta meg az elszabadult regényrém hordát – de ezúttal még nagyobb megpróbáltatás várja a könyvek új kíváncsi olvasóit. [Hidden Content] [Hidden Content] [Hidden Content] [Hidden Content] [Hidden Content]
  9. Halloween magyarul beszélő, amerikai horror, thriller, 2018 Rendező: David Gordon Green Forgatókönyv: David Gordon Green, Danny McBride Zene: John Carpenter Jamie Lee Curtis Judy Greer Virginia Gardner Will Patton Nick Castle Andi Matichak Kép ID/String : 0 Format : AVC Format/Info : Advanced Video Codec Format_Profile : Main@L3.0 Format_Settings_CABAC/String : igen Format_Settings_RefFrames/String : 1 k├⌐pkocka CodecID : H264 Duration/String : 1 ├│ra BitRate/String : 1 743 Kbps Width/String : 720 k├⌐ppont Height/String : 300 k├⌐ppont DisplayAspectRatio/String : 2,40:1 FrameRate_Mode/String : v├íltoz├│ FrameRate/String : 29,970 fps ColorSpace : YUV ChromaSubsampling : 4:2:0 BitDepth/String : 8 bit ScanType/String : folytonos Bits-(Pixel*Frame) : 0.269 StreamSize/String : 1,23 GiB (87%) Hang ID/String : 1 Format : MPEG Audio Format_Version : Version 1 Format_Profile : Layer 3 Format_Settings_Mode : Joint stereo Format_Settings_ModeExtension : MS Stereo CodecID : 55 CodecID/Hint : MP3 Duration/String : 1 ├│ra BitRate_Mode/String : ├ílland├│ BitRate/String : 256 Kbps Channel(s)/String : 2 csatorna SamplingRate/String : 44,1 KHz StreamSize/String : 184 MiB (13%) Alignment/String : igaz├¡tott Interleave_Duration/String : 430 emp (12,90 k├⌐pkocka) Interleave_Preload/String : 208 emp Title : 0~1 Nyelv : magyar Jamie Lee Curtis visszatér Laurie Strode ikonikus szerepében, hogy még egyszer utoljára szembeszálljon Michael Myersszel, az álarcos alakkal, aki azóta kísérti, amióta éppen hogy sikerült elmenekülnie előle egy halloweeni mészárláskor, négy évtizeddel ezelőtt. [Hidden Content] [Hidden Content] [Hidden Content] [Hidden Content] [Hidden Content]
  10. 22 mérföld /Mile 22/ magyarul beszélő, amerikai thriller, akciófilm, 94 perc, 2018 Rendező: Peter Berg Forgatókönyv: Lea Carpenter, Graham Roland Zene: Jeff Russo Mark Wahlberg John Malkovich Ronda Rousey Lauren Cohan Iko Uwais Terry Kinney Sala Baker Kép ID/String : 1 Format : MPEG-4 Visual Format_Profile : Advanced Simple@L5 Format_Settings_BVOP/String : igen Format_Settings_QPel/String : nem Format_Settings_GMC/String : 0 warppoint Format_Settings_Matrix/String : Default (H.263) CodecID : XVID CodecID/Hint : XviD Duration/String : 1 ├│ra BitRate/String : 1 661 Kbps Width/String : 720 k├⌐ppont Height/String : 304 k├⌐ppont DisplayAspectRatio/String : 2,35:1 FrameRate/String : 25,024 fps FrameRate_Original/String : 25,000 fps ColorSpace : YUV ChromaSubsampling : 4:2:0 BitDepth/String : 8 bit ScanType/String : folytonos Bits-(Pixel*Frame) : 0.303 StreamSize/String : 1,09 GiB (82%) Encoded_Library/String : XviD 67 Default/String : igen Forced/String : nem Hang ID/String : 2 Format : MPEG Audio Format_Version : Version 1 Format_Profile : Layer 3 CodecID : A_MPEG/L3 CodecID/Hint : MP3 Duration/String : 1 ├│ra BitRate_Mode/String : ├ílland├│ BitRate/String : 320 Kbps Channel(s)/String : 1 csatorna SamplingRate/String : 44,1 KHz StreamSize/String : 216 MiB (16%) Default/String : igen Forced/String : nem Nyelv : magyar Egy külföldre kihelyezett elit CIA-ügynök (Mark Wahlberg) szigorúan titkos megbízást kap: egy rendőrtisztet kell kicsempésznie az országból, aki veszélyes információk birtokában van. A küldetés során mindössze 22 mérföldet kell megtenniük a reptérig, ahol különgép várja őket indulásra készen. Az odavezető út azonban koránt sem bizonyul simának: a taktikai egységnek korrupt rendőrökkel, profi bűnözőkkel és felfegyverzett helyiekkel is fel kell venniük a harcot, akik mind a titokzatos informátor kiiktatására törnek – bármi áron. [Hidden Content] [Hidden Content] [Hidden Content] [Hidden Content] [Hidden Content]
  11. A hihetetlen család 2. /Incredibles 2/ magyarul beszélő, amerikai családi animációs film, 118 perc, 2018 Rendező: Brad Bird Forgatókönyv: Brad Bird Zene: Giacchino Craig T. Nelson Holly Hunter Samuel L. Jackson John Ratzenberger Isabella Rossellini Sarah Vowell Catherine Keener Eli Fucile Kép S├ív sz├íma : 1 Form├ítum : AVC Form├ítum/adatok : Advanced Video Codec Form├ítum profil : Main@L4.0 Form├ítum be├íll├¡t├ísok, CABAC : igen Form├ítum be├íll├¡t├ísok, ReFrames : 4 k├⌐pkocka K├│dek azonos├¡t├│ : V_MPEG4/ISO/AVC Id┼ætartam : 1 ├│ra Adatsebess├⌐g : 1 085 Kbps Sz├⌐less├⌐g : 720 k├⌐ppont Magass├íg : 304 k├⌐ppont K├⌐par├íny : 2,35:1 K├⌐pkockasebess├⌐g : 24,000 fps Eredeti k├⌐pkockasebess├⌐g : 23,976 fps ColorSpace : YUV ChromaSubsampling : 4:2:0 BitDepth/String : 8 bit Sorv├ílt├ís t├¡pusa : folytonos Bit/(k├⌐ppont*k├⌐pkocka) : 0.207 Hang S├ív sz├íma : 2 Form├ítum : MPEG Audio Form├ítum v├íltozat : Version 1 Form├ítum profil : Layer 3 K├│dek azonos├¡t├│ : A_MPEG/L3 K├│dek azonos├¡t├│/Tipp : MP3 Id┼ætartam : 1 ├│ra Adatsebess├⌐g m├│d : ├ílland├│ Adatsebess├⌐g : 320 Kbps Csatorn├ík sz├íma : 1 csatorna Mintav├⌐telez├⌐si gyakoris├íg : 44,1 KHz Adatfolyam m├⌐rete : 269 MiB (23%) K├│dol├│ k├╢nyvt├ír : LAME3.99.5 Default : igen Forced : nem Nyelv : magyar Mindenki kedvenc szuperhős-családja visszatér A hihetetlen család 2.-ben. Ezúttal Helen kerül középpontba, így Bobra hárul a feladat, hogy Illanával és Vill-lel megoldja otthon a hétköznapi élet kihívásait. Nehéz változás ez mindannyiuk számára, amit nem könnyít meg az sem, hogy senki nem tudja még mindig, milyen erő is lakozik Furiban. Amikor egy új gonosztevő elméjéből kipattan egy briliáns és veszedelmes terv, a családnak – és Fridzsimennek – ismét egy csapatként kell dolgoznia – ám az sem olyan egyszerű, ha mind hihetetlen figurák! [Hidden Content] [Hidden Content] [Hidden Content] [Hidden Content] [Hidden Content] [Hidden Content]
  12. Az első ember /First Man/ amerikai életrajzi dráma, történelmi film, 138 perc, 2018 Rendező: Damien Chazelle Forgatókönyv: Josh Singer Zene: Justin Hurwitz Claire Foy Ryan Gosling Pablo Schreiber Kyle Chandler Jason Clarke Ethan Embry Corey Stoll Kép ID/String : 1 Format : AVC Format/Info : Advanced Video Codec Format_Profile : Main@L3.0 Format_Settings_CABAC/String : igen CodecID : V_MPEG4/ISO/AVC Duration/String : 2 ├│ra BitRate/String : 1 743 Kbps Width/String : 720 k├⌐ppont Height/String : 300 k├⌐ppont DisplayAspectRatio/String : 2,40:1 FrameRate_Mode/String : v├íltoz├│ FrameRate/String : 29,970 fps ColorSpace : YUV ChromaSubsampling : 4:2:0 BitDepth/String : 8 bit ScanType/String : folytonos Bits-(Pixel*Frame) : 0.269 StreamSize/String : 1,57 GiB (88%) Hang ID/String : 2 Format : MPEG Audio Format_Version : Version 1 Format_Profile : Layer 3 Format_Settings_Mode : Joint stereo Format_Settings_ModeExtension : MS Stereo CodecID : A_MPEG/L3 CodecID/Hint : MP3 Duration/String : 2 ├│ra BitRate_Mode/String : ├ílland├│ BitRate/String : 192 Kbps Channel(s)/String : 2 csatorna SamplingRate/String : 48,0 KHz StreamSize/String : 181 MiB (10%) Encoded_Library/String : LAME3.99.5 Default/String : igen Forced/String : nem Nyelv : magyar A 6 Oscar-díjas sikerfilmjük, a Kalifornia álom után Ryan Gosling és a rendező Damien Chazelle újra összefogtak: filmre viszik a lebilincselő történetet, amelynek középpontjában a NASA missziója áll, hogy embert küldjenek a holdra. A zsigeri, szubjektív krónika Neil Armstrong 1961 és 1969 közti időszakára koncentrál, és James R. Hansen könyve alapján készült. A film feltárja, milyen áldozatokat követelt Armstrongtól és a nemzettől a történelem egyik legveszélyesebb küldetése. [Hidden Content] [Hidden Content] [Hidden Content] [Hidden Content] [Hidden Content] [Hidden Content]
  13. Pelyhes - Kalandra fel! /Ploey - You Never Fly Alone/ magyarul beszélő, izlandi-belga animációs kalandfilm, 83 perc, 2018 Rendező: Árni Ásgeirsson Forgatókönyv: Fridrik Erlingsson Zene: Atli Örvarsson Jamie Oram Harriet Perring Ian Stuart Robertson Richard Cottan Thorunn Erna Clausen Thomas Arnold Format : MPEG-4 Format profile : Base Media Codec ID : isom (isom/iso2/avc1/mp41) File size : 341 MiB Duration : 1 h 22 min Overall bit rate : 578 kb/s Writing application : Lavf57.83.100 Video ID : 1 Format : AVC Format/Info : Advanced Video Codec Format profile : High@L3.1 Format settings, CABAC : Yes Format settings, ReFrames : 5 frames Codec ID : avc1 Codec ID/Info : Advanced Video Coding Duration : 1 h 22 min Source duration : 3 min 46 s Bit rate : 512 kb/s Width : 720 pixels Height : 304 pixels Display aspect ratio : 2.35:1 Frame rate mode : Constant Frame rate : 24.000 FPS Color space : YUV Chroma subsampling : 4:2:0 Bit depth : 8 bits Scan type : Progressive Bits/(Pixel*Frame) : 0.097 Stream size : 300 MiB (88%) Source stream size : 300 MiB (88%) Writing library : x264 core 148 r2643 5c65704 Audio ID : 2 Format : AAC Format/Info : Advanced Audio Codec Format profile : LC Codec ID : 40 Duration : 1 h 22 min Bit rate mode : Constant Bit rate : 64.4 kb/s Channel(s) : 2 channels Channel(s)_Original : 1 channel Channel positions : Front: C Sampling rate : 44.1 kHz Frame rate : 43.066 FPS (1024 spf) Compression mode : Lossy Stream size : 38.0 MiB (11%) Title : AudioJoiner181022000907 Default : Yes Alternate group : 1 Közeleg a hideg tél, ilyenkor a legtöbb madár délnek indul, hogy egy melegebb vidéken vészelje át a zord évszakot. Így tesz a kis Pelyhes családja is, ám Ő még túl pici a repüléshez, és egy véletlen folytán lemarad az indulásról. Mikor megérkezik a fagy, a kismadárnak minden bátorságára szüksége lesz, hogy megküzdjön a barátságtalan időjárással és megtalálja a családját. Szerencséjére a kalandban segítségére lesz megannyi új barát. [Hidden Content] [Hidden Content] [Hidden Content] [Hidden Content]
  14. Húzós éjszaka az El Royale-ban /Bad Times at the El Royale/ magyarul beszélő, amerikai krimi, thriller, 2018 Rendező: Drew Goddard Író: Drew Goddard Zene: Michael Giacchino Chris Hemsworth Jon Hamm Dakota Johnson Jeff Bridges Cailee Spaeny Nick Offerman Lewis Pullman Format : MPEG-4 Format profile : Base Media Codec ID : isom (isom/iso2/avc1/mp41) File size : 1.19 GiB Duration : 2 h 12 min Overall bit rate : 1 291 kb/s Writing application : Lavf57.83.100 Video ID : 1 Format : AVC Format/Info : Advanced Video Codec Format profile : High@L3.1 Format settings, CABAC : Yes Format settings, ReFrames : 5 frames Codec ID : avc1 Codec ID/Info : Advanced Video Coding Duration : 2 h 12 min Bit rate : 1 152 kb/s Width : 1 280 pixels Height : 536 pixels Display aspect ratio : 2.40:1 Frame rate mode : Constant Frame rate : 29.970 (29970/1000) FPS Color space : YUV Chroma subsampling : 4:2:0 Bit depth : 8 bits Scan type : Progressive Bits/(Pixel*Frame) : 0.056 Stream size : 1.07 GiB (89%) Writing library : x264 core 148 r2795 aaa9aa8 Audio ID : 2 Format : AAC Format/Info : Advanced Audio Codec Format profile : LC Codec ID : 40 Duration : 2 h 12 min Bit rate mode : Constant Bit rate : 129 kb/s Channel(s) : 2 channels Channel(s)_Original : 1 channel Channel positions : Front: C Sampling rate : 44.1 kHz Frame rate : 43.066 FPS (1024 spf) Compression mode : Lossy Stream size : 122 MiB (10%) Default : Yes Alternate group : 1 Hét titkokkal terhelt idegen találkozik a kaliforniai Tahoe-tó mellett az El Royale-ban, egy sötét múltú, lelakott hotelben. Egy végzetes éjszaka folyamán mindenkinek jut egy utolsó esély a megváltására… mielőtt végleg elszabadul a pokol. [Hidden Content] [Hidden Content] [Hidden Content] [Hidden Content] [Hidden Content] [Hidden Content] [Hidden Content] [Hidden Content] [Hidden Content] [Hidden Content] [Hidden Content] [Hidden Content] [Hidden Content]
  15. Horror Park /Hell Fest/ amerikai horror, 83 perc, 2018 Gregory Plotkin forgatókönyvíró: Seth M. Sherwood Blair Butler producer: Gale Anne Hurd Tucker Tooley Christopher H. Warner executive producer: Ben Roberts zene: Bear McCreary vágó: David Egan Gregory Plotkin Tony Todd (), Michael Tourek (Security Guard), nm2349949 (Cop), Reign Edwards (Brooke), Bex Taylor-Klaus (Taylor), nm4918316 (Shaved Ice Vendor), Matt Mercurio (Asher), Amy Forsyth (Natalie), nm5234677 (Hellfest Halloween Park Goer), nm5688481 (Quinn), nm6285328 (Little Girl), Courtney Dietz (Britney), Roby Attal (Gavin), nm9488334 (Ride Attendant (as John J. Laws)), nm9614683 (Britney's Friend) Format : MPEG-4 Format profile : Base Media Codec ID : isom (isom/iso2/avc1/mp41) File size : 439 MiB Duration : 1 h 22 min Overall bit rate : 741 kb/s Writing application : Lavf57.83.100 Video ID : 1 Format : AVC Format/Info : Advanced Video Codec Format profile : High@L3.1 Format settings, CABAC : Yes Format settings, ReFrames : 5 frames Codec ID : avc1 Codec ID/Info : Advanced Video Coding Duration : 1 h 22 min Bit rate : 640 kb/s Width : 720 pixels Height : 364 pixels Display aspect ratio : 1.978 Frame rate mode : Constant Frame rate : 29.970 (30000/1001) FPS Color space : YUV Chroma subsampling : 4:2:0 Bit depth : 8 bits Scan type : Progressive Bits/(Pixel*Frame) : 0.081 Stream size : 377 MiB (86%) Writing library : x264 core 148 r2795 aaa9aa8 Audio ID : 2 Format : AAC Format/Info : Advanced Audio Codec Format profile : LC Codec ID : 40 Duration : 1 h 22 min Duration_LastFrame : -12 ms Bit rate mode : Constant Bit rate : 96.0 kb/s Channel(s) : 2 channels Channel(s)_Original : 1 channel Channel positions : Front: C Sampling rate : 44.1 kHz Frame rate : 43.066 FPS (1024 spf) Compression mode : Lossy Stream size : 57.5 MiB (13%) Default : Yes Alternate group : 1 Egy maszkos sorozatgyilkos saját játszóteret csinál egy horror tematikájú vidámparkból: terrorizálni kezd egy baráti társaságot, míg a többi vendég azt hiszi, ez az egész csak a műsor része. A főiskolás Natalie (Forsyth) meglátogatja gyerekkori legjobb barátnőjét, Brooke-ot (Edwards) és szobatársát, Taylort (Taylor-Klaus). A lányok az év bármely másik napján valószínűleg bulizni vagy iszogatni mennének a pasijukkal, de most Helloween van, vagyis a többséghez hasonlóan ők is a Horror Parkba tartanak – az országot járó, rémisztő játékokat felvonultató vurstli ugyanis nemrég érkezett meg a városba. Minden évben több ezren látogatnak el a Horror Parkba, hogy részt vegyenek a hátborzongató attrakciók karneválján. Ám egyvalaki számára a Horror Park nem vidámpark, hanem vadászmező. Lehetőség arra, hogy nyílt színen lecsapjon a szájtátva közlekedő emberekre, akiket túlságosan is leköt a szörnyű szórakozás ahhoz, hogy felfigyeljenek a szemük előtt lejátszódó borzalmakra. Miközben a holttestek száma és a közönség rettegéssel vegyes izgatottsága egyre csak nő, a maszkos gyilkos célba veszi Natalie-t, Brooke-ot, Taylort és pasijaikat, akik mindent megtesznek, hogy valahogy túléljék az éjszakát. [Hidden Content] [Hidden Content] [Hidden Content] [Hidden Content] [Hidden Content]

Frissült, módosult a Filmek/Sorozat szabályzat!

×