Jump to content
szilvike19800717

A végzet órája/The House with a Clock in its Walls/ 2018.CAM.HUN

Téma értékelése

Recommended Posts

tt211910.jpg


film_c10.png
A végzet órája
/The House with a Clock in its Walls/
amerikai családi film, fantasy, horror, 104 perc, 2018
stabli10.png
   rendező:
   Eli Roth
   forgatókönyvíró:
   Eric Kripke
   operatőr:
   Rogier Stoffers
   producer:
   Eric Kripke James Vanderbilt
   zene:
   Nathan Barr
szerep10.png

Lewis Barnavelt
Owen Vaccaro
Jonathan Barnavelt
Jack Black
Mrs. Zimmerman
Cate Blanchett
Isaac Izard
Kyle MacLachlan
Selena Izard
Renée Elise Goldsberry
Lewis édesanyja
Lorenza Izzo
infa11.png

Video
ID                             : 1
Format                         : AVC
Format/Info                    : Advanced Video Codec
Format profile                 : High@L3.1
Format settings, CABAC         : Yes
Format settings, ReFrames      : 5 frames
Codec ID                       : avc1
Codec ID/Info                  : Advanced Video Coding
Duration                       : 1 h 38 min
Bit rate                       : 512 kb/s
Width                          : 720 pixels
Height                         : 300 pixels
Display aspect ratio           : 2.40:1
Frame rate mode                : Constant
Frame rate                     : 29.970 (30000/1001) FPS
Color space                    : YUV
Chroma subsampling             : 4:2:0
Bit depth                      : 8 bits
Scan type                      : Progressive
Bits/(Pixel*Frame)             : 0.079
Stream size                    : 361 MiB (88%)
Writing library                : x264 core 148 r2795 aaa9aa8

Audio
ID                             : 2
Format                         : AAC
Format/Info                    : Advanced Audio Codec
Format profile                 : LC
Codec ID                       : 40
Duration                       : 1 h 38 min
Bit rate mode                  : Constant
Bit rate                       : 64.4 kb/s
Channel(s)                     : 2 channels
Channel(s)_Original            : 1 channel
Channel positions              : Front: C
Sampling rate                  : 44.1 kHz
Frame rate                     : 43.066 FPS (1024 spf)
Compression mode               : Lossy
Stream size                    : 45.2 MiB (11%)
Title                          : HANG~1
Default                        : Yes
Alternate group                : 1

film_l10.png
A 10 éves Lewis Barnavelt (Owen Vacarro), mikor a nagybátyjához, Jonathanhez (Jack Black) költözik, nem is sejti, hogy egy mágiával, varázslókkal, boszorkányokkal teli izgalmas világba csöppen. Új otthona, az ódon kastély megannyi titkot rejt, köztük a ház falában egy folyton ketyegő különös órát. Amikor Lewis halloweenkor véletlenül feltámasztja a holtakat, megkezdődik a versenyfutás az idővel. A bátor fiúnak varázsló bácsikájával és a szomszédban lakó belevaló boszorkánnyal, Florence-szel (Cate Blanchett) karöltve meg kell találnia az órát, hogy a fekete mágiát űző, holtából feltámadt gonosz varázslónő, Selena (Renée Elise Goldsberry) kegyetlen tervét megsemmisítsék, és megmentsék a világot a teljes pusztulástól.
kyypek10.gif

117.png

217.png


317.png

letalt10.jpg

http://data.hu/get/11510171/A_vegzet_oraja_2018.CAM.HUN.z01?pid=3213894265
http://data.hu/get/11510172/A_vegzet_oraja_2018.CAM.HUN.z02?pid=3213894265
http://data.hu/get/11510173/A_vegzet_oraja_2018.CAM.HUN.z03?pid=3213894265
http://data.hu/get/11510174/A_vegzet_oraja_2018.CAM.HUN.z04?pid=3213894265
http://data.hu/get/11510175/A_vegzet_oraja_2018.CAM.HUN.zip?pid=3213894265

Téma megosztása


Link to post
Share on other sites

Your content will need to be approved by a moderator

Hozzászólás a témához...

×   Pasted as rich text.   Paste as plain text instead

  Only 75 emoji are allowed.

×   Your link has been automatically embedded.   Display as a link instead

×   Your previous content has been restored.   Clear editor

×   You cannot paste images directly. Upload or insert images from URL.

Loading...

×